[BDRIP] 欅坂46 – 不協和音 (欅共和国2017) [2018.09.26]

Duration: 00:04:08.18, start: 0.000000, bitrate: 8399 kb/s
Stream #0:0(eng): Video: vp9 (Profile 0), yuv420p(tv), 1920×1080, SAR 1:1 DAR 16:9, 23.98 fps, 23.98 tbr, 1k tbn, 1k tbc (default)
Stream #0:1: Audio: vorbis, 48000 Hz, stereo, fltp (default)

Live performance of Fukyouwaon from Keyaki Kyouwakoku 2017 concert

Download/ダウンロード/下载

(pass=jpfiles)

Leave a Comment

NOTE - You can use these HTML tags and attributes:
<a href="" title=""> <abbr title=""> <acronym title=""> <b> <blockquote cite=""> <cite> <code> <del datetime=""> <em> <i> <q cite=""> <s> <strike> <strong>